Results 1 to 5 of 5

Thread: No Live TV or Recorded streaming

  1. #1
    Join Date
    Jun 2016
    Location
    UK
    Posts
    4

    No Live TV or Recorded streaming

    Hi Folks - Just a quick query if anyone can help.

    Got the IOS app and it works fine - links up okay and see listings etc, but cannot stream any live or recorded TV.

    I looked in the logs and have this


    Seems stream 0 codec frame rate differs from container frame rate: 50.00 (50/1) -> 25.00 (25/1)
    Input #0, mpegts, from 'http://127.0.0.1:8866/live?channel=12&transcoder=a214790a-10d0-4571-8561-48f68f7b836a':
    Duration: N/A, start: 56402.253378, bitrate: 15128 kb/s
    Program 22272
    Stream #0.0[0x191]: Video: mpeg2video, yuv420p, 544x576 [PAR 32:17 DAR 16:9], 15000 kb/s, 25 tbr, 90k tbn, 50 tbc
    Stream #0.1[0x192](eng): Audio: mp2, 48000 Hz, stereo, s16, 128 kb/s
    Stream #0.2[0x194](eng): Audio: mp3, 0 channels, s16
    Stream #0.3[0x193](eng): Subtitle: dvbsub
    C:\Program Files (x86)\NPVR\Other\ffmpeg.exe: unrecognized option '-map_metadata'


    Seems to be either the framerate mismatch or the unrecognised -map_metadata?? or is it something else entirely..

    Any suggestions??
    Cheers

  2. #2
    Join Date
    Nov 2003
    Location
    NextPVR HQ, Wellington, New Zealand
    Posts
    84,540
    Whats the date/time on your "C:\Program Files (x86)\NPVR\Other\ffmpeg.exe" file?

  3. #3
    Join Date
    Jun 2016
    Location
    UK
    Posts
    4
    Thanks for getting back

    yeah looks like the ffmeg is out of date - Apr 21 2009!!. I presume this was installed when I installed NVPR?? I cant remember fiddling with anything??


    I've popped in a newer version and it all works fine now

    Cheers

  4. #4
    Join Date
    Nov 2003
    Location
    NextPVR HQ, Wellington, New Zealand
    Posts
    84,540
    That's odd. The one included with the NextPVR 3.7.7 installer is from 2016.

    Glad you got it working though.

  5. #5
    Join Date
    Oct 2009
    Location
    San Jose, California
    Posts
    427
    Turns out to be my problem also... a 2009 ffmpeg.exe! Works great now.

Posting Permissions

  • You may not post new threads
  • You may not post replies
  • You may not post attachments
  • You may not edit your posts
  •