Results 1 to 10 of 10

Thread: recording issue

  1. #1
    Join Date
    Sep 2018
    Location
    United Kingdom
    Posts
    22

    recording issue

    Ive scheduled some recordings for a 30 min slot on the planner but its only recorded a couple of mins of it, anyone have any ideas what could cause this?
    Attached Images Attached Images  

  2. #2
    Join Date
    Sep 2004
    Location
    Winsford, UK
    Posts
    584
    NPVR Logs covering the time of the recording are needed to stand any chance of an answer
    NPVR Version= 4.2.2
    Intel i7 Quad Core 3200 + 16GB DDR2 Gigabyte Motherboard
    Windows 10 Pro 64bit
    BlackGold dual DVB T & S tuner
    60Gb SSD System Disk (Raid 1)
    60Gb SSD Recording Cache
    4Tb Media Store (WD Red 4Tb x 2 in Raid 1)

    Raspberry 2 x Pi2 running OSMC (Kodi v17.6)
    Raspberry Pi3 B+ running OSMC (Kodi v17.6)

  3. #3
    Join Date
    Dec 2005
    Location
    UK
    Posts
    2,973
    Quote Originally Posted by mdw402 View Post
    Ive scheduled some recordings for a 30 min slot on the planner but its only recorded a couple of mins of it, anyone have any ideas what could cause this?
    Please reproduce the problem and the zip all of the NextPVR logs (at NextPVR Settings --> About) and attache the zip file to a post telling us the time that the recording failed so that we know where to look in the logs.

    How are you creating the recordings? Why don't you have real shows in the Guide? Is this IPTV?
    i5 750 2.67 GHz, 6 Gig, 1000 Gig, Nvidia N710
    2 x Hauppauge WinTV QuadHD DVB-T2

  4. #4
    Join Date
    Sep 2018
    Location
    United Kingdom
    Posts
    22
    here they are, I also get the following error keep popping up:
    Attached Images Attached Images  
    Attached Files Attached Files

  5. #5
    Join Date
    Sep 2018
    Location
    United Kingdom
    Posts
    22
    yes its beast tv from vader streams, here is a log from this morning
    Attached Files Attached Files

  6. #6
    Join Date
    Nov 2003
    Location
    NextPVR HQ, Wellington, New Zealand
    Posts
    87,311
    Quote Originally Posted by mdw402 View Post
    here they are, I also get the following error keep popping up:
    Can you hit the 'Details' button on that popup, and copy the text, then post it here?

  7. #7
    Join Date
    Nov 2003
    Location
    NextPVR HQ, Wellington, New Zealand
    Posts
    87,311
    Quote Originally Posted by mdw402 View Post
    yes its beast tv from vader streams, here is a log from this morning
    You machine is transcoding the streams, but too slow to keep up. It's only doing 0.3 times the required speed.

    2018-11-10 05:30:27.486 [DEBUG][44] IPTV: frame= 592 fps=7.9 q=28.0 size= 11896kB time=00:00:23.78 bitrate=4096.9kbits/s speed=0.319x
    2018-11-10 05:30:28.321 [DEBUG][81] IPTV: frame= 595 fps=7.9 q=28.0 size= 11975kB time=00:00:23.78 bitrate=4124.2kbits/s speed=0.316x
    2018-11-10 05:30:29.447 [DEBUG][44] IPTV: frame= 599 fps=7.9 q=28.0 size= 12062kB time=00:00:24.00 bitrate=4117.1kbits/s speed=0.317x
    2018-11-10 05:30:29.450 [DEBUG][44] IPTV: frame= 599 fps=7.8 q=28.0 size= 12062kB time=00:00:24.02 bitrate=4113.5kbits/s speed=0.314x
    2018-11-10 05:30:30.166 [DEBUG][54] IPTV: frame= 606 fps=7.8 q=28.0 size= 12207kB time=00:00:24.34 bitrate=4108.2kbits/s speed=0.315x

  8. #8
    Join Date
    Nov 2003
    Location
    NextPVR HQ, Wellington, New Zealand
    Posts
    87,311
    mdw402 - can you PM me the m3u url you imported from. I'd like to check why your machine is insisting on transcoding these streams. In theory it shouldn't need to, and given you machine can't keep up, it'd be beneficial to work out why it's doing this.

  9. #9
    Join Date
    Sep 2018
    Location
    United Kingdom
    Posts
    22
    I think I pm'd you but not sure if you got it

  10. #10
    Join Date
    Nov 2003
    Location
    NextPVR HQ, Wellington, New Zealand
    Posts
    87,311
    I can see a PM with it. I'll check in a few hours.

Posting Permissions

  • You may not post new threads
  • You may not post replies
  • You may not post attachments
  • You may not edit your posts
  •